#TITLE:Aoki Flamme;
#SUBTITLE:- Pumpkin Scissors Opening;
#ARTIST:高橋洋子;
#TITLETRANSLIT:;
#SUBTITLETRANSLIT:;
#ARTISTTRANSLIT:Takahashi Youko;
#CREDIT:LK4D4;
#BANNER:PS O banner vid.avi;
#BACKGROUND:PS bg1.jpg;
#LYRICSPATH:Pumpkin Scissors O.lrc;
#CDTITLE:lkred1.png;
#MUSIC:PS O Audio.mp3;
#OFFSET:-0.040;
#SAMPLESTART:11.621;
#SAMPLELENGTH:12.000;
#SELECTABLE:YES;
#DISPLAYBPM:136.000;
#BPMS:0.000=136.460,88.750=25.000,89.000=136.000;
#STOPS:17.667=0.440
;
#BGCHANGES:0.188=Pumpkin Scissors O Video.avi=1.000=0=0=0,
200.000=PS bg2.jpg=1.000=1=0=0,
99999=-nosongbg-=1.000=0=0=0 // don't automatically add -songbackground-
;
// cache tags:
#FIRSTBEAT:17.500;
#LASTBEAT:201.000;
#SONGFILENAME:songs/Otaku's Dream 3rd Anime Mix/[LK4D4] Aoki Flamme - Pumpkin Scissors OP/Pumpkin Scissors O.sm;
#HASMUSIC:1;
#HASBANNER:1;
#MUSICLENGTH:93.832;
// end cache tags

//---------------dance-single - Blank----------------
#NOTES:
     dance-single:
     Blank:
     Challenge:
     9:
     0.754,0.884,0.650,1.000,0.554,324.000,61.000,107.000,8.000,0.000:

0000
0000
0000
0000
,
0000
0000
0000
0000
,
0000
0000
0000
0000
,
0000
0000
0000
0000
,
0000
0000
0000
0000
0000
0000
0000
0000
0000
0000
0000
0000
0000
0000
0000
0000
0000
0000
0010
0000
0010
0000
0000
0000
1001
0000
0000
0000
0000
0000
1000
0000
0000
0000
0000
0000
0010
0000
0000
0000
0000
0000
0100
0000
0000
0010
0000
0000
,
0000
1000
0000
0001
0100
0001
0010
0000
0100
0000
1000
0000
0010
0000
0100
0010
,
0000
1000
0000
0100
1000
0100
0010
0000
0011
0000
0010
0000
0100
0000
1000
0100
,
0000
0010
0000
1000
0010
0000
1000
0000
0010
0100
0010
0000
0001
0000
1000
0010
,
0000
0000
2200
3300
0220
0330
0022
0033
0202
0303
0000
0220
0330
0000
2020
0000
,
3030
0000
2002
0000
3003
0000
0010
0000
0100
0000
0000
0001
0000
0000
0200
0000
,
1000
0001
0000
0010
0001
1000
0310
0000
0100
0001
1000
0000
0001
0000
0010
1000
,
0000
0010
0000
0001
0100
0000
0010
0000
1000
0010
0100
0000
1000
0000
0000
0100
,
0000
0000
0001
0000
0022
0033
0220
0330
2200
3300
0000
2020
3030
0000
0220
0000
,
0330
0000
0202
0000
0303
0000
1000
0000
0010
0000
0000
0100
0000
0000
0002
0000
,
1000
0010
0000
0100
1000
0100
0013
0000
2020
0000
3030
0000
0000
0000
0000
0000
,
0000
0000
0001
0000
0100
0000
1000
0000
0100
0000
0001
0010
0000
0000
0100
1000
,
0000
0001
0100
0001
0010
0000
0100
0000
2200
0000
3300
1000
0000
0000
0010
0000
,
0202
0000
0303
0010
0000
0000
1000
0000
2200
0000
3300
0100
0000
0000
0010
0000
,
0022
0000
0033
0010
0000
0000
0100
0000
2000
0000
0100
0010
0000
0001
0010
0100
,
3010
0000
0001
0000
1000
0000
0001
0200
0000
0000
0010
1000
0000
0001
1000
0001
,
0310
0000
0001
0000
0100
0000
0010
0000
0100
0000
1000
0000
0100
0000
0001
0010
,
0000
0000
0001
0000
0000
0000
0100
0000
1000
0000
0010
0000
0100
0000
0001
0200
,
0000
0000
0000
0000
0000
0000
0000
0000
0000
0000
0000
0000
0300
0000
0000
0000
0000
0000
0000
0000
0000
0000
0000
0000
0000
0000
0000
0000
0000
0000
0000
0000
0000
0000
0000
0000
0010
0000
0100
0000
0020
0000
0000
0000
0000
0000
0030
0000
1000
0000
0000
0000
0000
0000
0000
0000
0000
0000
0000
0000
0100
0000
0000
0000
0000
0000
0000
0000
0000
0000
0000
0000
0010
0000
0000
0000
0000
0000
0000
0000
0000
0000
0000
0000
0000
0000
0000
0000
0000
0000
0000
0000
0000
0000
0000
0000
0001
0000
0000
0000
0000
0000
0000
0000
0000
0000
0000
0000
0000
0000
0000
0000
0000
0000
0000
0000
0000
0000
0000
0000
0100
0000
0000
0000
0000
0000
0000
0000
0000
0000
0000
0000
0001
0000
0000
0000
0000
0000
0000
0000
0000
0000
0000
0000
0000
0000
0000
0000
0000
0000
0000
0000
0000
0000
0000
0000
0010
0000
0000
0000
0000
0000
0000
0000
0000
0000
0000
0000
0000
0000
0000
0000
0000
0000
0000
0000
0000
0000
0000
0000
0100
0000
0000
0000
0000
0000
0000
0000
0000
0000
0000
0000
,
1000
0000
0010
0000
0100
0010
0100
0000
1000
0000
0100
0001
0000
0000
0202
0303
,
0022
0033
2200
3300
2020
3030
0000
0220
0330
0000
0202
0000
0303
0000
2002
0000
,
3003
0000
0001
0000
0010
0000
0000
0100
0000
0000
2000
0000
0001
0010
0000
0100
,
0010
0001
3010
0000
1000
0100
0010
0000
0100
0000
1000
0100
0000
0010
0000
0001
,
0100
0000
1000
0000
0100
0001
0100
0000
0010
0000
1000
0001
1000
0000
2020
3030
,
0220
0330
0202
0303
0022
0033
0000
2200
3300
0000
2002
0000
3003
0000
0022
0000
,
0033
0000
1000
0000
0010
0000
0000
0100
0000
0000
0002
0000
0010
1000
0000
0010
,
0100
0010
1003
0000
0201
0000
0000
0000
0000
0000
0000
0000
0300
0000
2020
3030
,
0000
2200
3300
0000
0022
0000
0033
0000
0202
0000
0303
0000
2002
0000
3003
0000
,
2020
0000
3030
0000
0120
0000
0000
0000
0100
1000
0100
0000
0130
0000
0100
0000
,
0000
0010
2020
3030
2200
3300
0022
0033
,
0100
0000
0000
0000
1000
0000
0000
0020
0000
0000
0100
0000
1000
0000
0000
0100
,
0030
0000
1000
0000
0010
0000
0000
0200
0000
0000
0010
0000
0001
0000
0000
1000
,
0000
0301
2002
0000
0000
0000
3003
0020
,
0030
0000
0100
0000
1000
0000
0000
0010
0000
0000
0100
0000
0001
0000
0000
0010
,
0000
0000
0100
0000
110M
00M0
0M00
M000
0001
0010
0001
0000
0010
0000
0000
0000
,
1100
0000
0000
0000
1010
0000
0000
0101
0000
0000
0010
0000
1000
0000
0001
0100
,
0001
0000
0010
0000
01M1
M000
000M
0M00
0010
1000
0010
0000
1000
0000
0000
0000
,
0101
0000
0000
0000
0011
0000
0000
1100
0000
0000
0010
0000
0001
0000
0000
0000
,
0100
0000
0000
0000
1000
0000
0000
0100
0000
0000
0002
0000
0010
0000
0010
0000
,
0013
0000
0110
0000
1000
0000
0000
0001
0000
0000
0020
0000
0100
0000
0130
0000
,
1100
0000
0000
0000
0002
0000
0100
0010
0000
1000
0010
0000
0100
0010
0100
0000
,
0100
1000
0100
0000
0013
0000
0000
0000
0000
0000
0000
0000
0202
0303
0000
0220
,
0330
0000
2020
3030
0201
0010
1000
0000
0010
0000
0010
1000
0000
0010
0000
1000
,
0001
0000
0000
0000
0001
0010
1000
0000
0010
0000
0010
1000
0000
0010
0000
1000
,
0001
0000
0004
0000
0000
0003
0040
0000
,
0000
0330
4004
0000
0000
0000
0000
0000
,
0000
3003
0000
0000
;

//---------------dance-single - Blank----------------
#NOTES:
     dance-single:
     Blank:
     Hard:
     7:
     0.547,0.669,0.650,0.298,0.378,270.000,61.000,28.000,0.000,0.000:

0000
0000
0000
0000
,
0000
0000
0000
0000
,
0000
0000
0000
0000
,
0000
0000
0000
0000
,
0000
0000
0000
0000
0000
0000
0000
0000
0000
0000
0000
0000
0000
0000
0000
0000
0000
0000
0100
0000
0010
0000
0000
0000
1001
0000
0000
0000
0000
0000
1000
0000
0000
0000
0000
0000
0010
0000
0000
0000
0000
0000
0100
0000
0000
0010
0000
0000
,
0000
1000
0000
0010
0100
0001
1000
0000
1100
0000
0001
0000
0010
0000
0100
0010
,
0000
0001
0000
0010
0100
1000
0001
0000
0110
0000
0010
0000
1000
0000
0010
0100
,
0000
1000
0000
0100
0001
0000
1000
0000
0100
0010
0001
0000
0100
0000
1000
0100
,
0000
0000
1010
0000
1100
0000
0110
0000
0011
0000
0000
0101
0000
0000
0110
0000
,
0000
0000
1100
0000
0000
0000
0010
0000
1000
0000
0000
0100
0000
0000
0020
0000
,
0000
0000
0000
0000
0000
0030
0000
0000
0100
1000
0001
0000
0010
0000
0100
1000
,
0000
0010
0000
0100
0001
0000
0010
0000
0100
0001
0100
0000
1000
0000
0000
0100
,
0000
0000
0010
0000
1100
0000
0101
0000
0110
0000
0000
1010
0000
0000
1100
0000
,
0000
0000
0011
0000
0000
0000
0100
0000
1000
0000
0000
0010
0000
0000
0200
0000
,
0000
0000
0000
0300
1001
0000
0000
0000
,
0000
0000
0001
0000
0100
0000
1000
0000
0100
0000
0001
0010
0000
0000
0100
1000
,
0000
0010
0100
0001
1000
0000
0010
0000
0202
0303
0000
1000
0000
0000
0100
0000
,
2020
3030
0000
0010
0000
0000
0100
0000
0202
0303
0000
1000
0000
0000
0001
0000
,
0022
0033
0000
1000
0000
0000
0010
0000
0202
0000
0000
0000
0000
0000
0000
0000
,
0303
0000
0001
0000
1000
0000
0010
0200
0000
0000
0000
0000
0000
0000
0300
0000
,
0000
0000
0001
0000
0010
0000
1000
0000
0010
0000
0001
0000
0100
0000
0010
1000
,
0000
0000
1100
0000
0000
0000
0010
0000
0001
0000
1000
0000
0010
0000
0100
0001
,
0000
0000
0000
0000
0000
0000
0000
0000
0000
0000
0010
0100
0020
0000
0000
0030
0100
0000
0000
0000
1000
0000
0000
0000
0001
0000
0000
0000
0000
0000
0000
0000
0010
0000
0000
0000
0000
0000
0000
0000
0001
0000
0000
0000
0100
0000
0000
0000
0000
0000
0000
0000
1000
0000
0000
0000
0000
0000
0000
0000
0100
0000
0000
0000
,
0010
0000
1000
0000
0010
0100
0010
0000
1000
0000
0100
0010
0000
0000
0011
0000
,
0101
0000
0110
0000
1010
0000
0000
1100
0000
0000
0110
0000
0000
0000
0011
0000
,
0000
0000
1000
0000
0100
0000
0000
0010
0000
0000
0002
0000
0000
0000
0000
0000
,
0000
0000
0003
0000
0100
0010
1000
0000
0100
0000
0010
0001
0000
0100
0000
1000
,
0100
0000
0001
0000
0010
0100
1000
0000
0010
0000
1000
0100
0010
0000
0011
0000
,
0101
0000
1010
0000
1100
0000
0000
0110
0000
0000
0011
0000
0000
0000
1001
0000
,
0000
0000
0100
0000
0010
0000
0000
1000
0000
0000
0020
0000
0000
0000
0000
0000
,
0000
0030
2002
0000
0000
0000
3003
1010
,
0000
0110
0000
0000
0101
0000
0000
0000
1100
0000
0000
0000
0110
0000
0000
0000
,
0011
0000
2020
0000
0000
0000
3030
1000
,
0000
0100
0010
0000
0001
0000
0100
0000
,
1010
0000
0000
0000
1100
0000
0000
0210
0000
0000
0001
0000
1000
0000
0000
0010
,
0300
0000
0011
0000
0101
0000
0000
2010
0000
0000
0001
0000
0010
0000
0000
0001
,
0000
3100
0210
0000
0000
0000
0300
1000
,
0000
0000
0010
0000
0100
0000
0000
0001
0000
0000
0010
0000
0100
0000
0000
1000
,
0000
0000
0001
0000
1010
0000
0000
0000
0100
0001
0100
0000
0010
0000
0000
0000
,
0100
0000
0000
0000
0001
0000
0000
0010
0000
0000
0100
0000
1000
0000
0001
0100
,
0001
0000
1000
0000
0011
0000
0000
0000
0100
1000
0100
0000
0010
0000
0000
0000
,
0100
0000
0000
0000
1000
0000
0000
0010
0000
0000
0100
0000
0001
0000
0000
0000
,
1000
0000
0000
0000
1100
0000
0000
0110
0000
0000
0011
0000
0001
0000
0001
0000
,
0001
0000
0100
0000
0010
0000
0000
1010
0000
0000
1000
0000
1000
0000
1000
0000
,
0100
0022
0000
0000
,
0000
0000
0000
0000
0033
0000
0000
0000
0000
0000
0000
0000
1001
0000
0000
0100
,
0000
0000
0010
0000
0200
0000
0000
0000
0010
0010
0010
0000
0001
0000
0000
0000
,
0000
0000
0000
0000
1000
0000
0000
0000
0010
0010
0010
0000
1000
0000
0000
0000
,
0000
0010
1000
0001
,
0010
0300
2002
0000
0000
0000
0000
0000
,
0000
3003
0000
0000
;

//---------------dance-single - Blank----------------
#NOTES:
     dance-single:
     Blank:
     Medium:
     6:
     0.425,0.589,0.309,0.234,0.320,228.000,29.000,22.000,0.000,0.000:

0000
0000
0000
0000
,
0000
0000
0000
0000
,
0000
0000
0000
0000
,
0000
0000
0000
0000
,
0000
0000
0000
0000
0000
0000
0000
0000
0000
0000
0000
0000
0000
0000
0000
0000
0000
0000
0100
0000
0010
0000
0000
0000
0110
0000
0000
0000
0000
0000
0100
0000
0000
0000
0000
0000
0010
0000
0000
0000
0000
0000
1000
0000
0000
0001
0000
0000
,
0000
1000
0000
0100
1000
0100
0010
0000
0110
0000
0010
0000
0001
0000
1000
0010
,
0000
0100
0000
0001
0100
0001
0010
0000
0011
0000
1000
0000
0100
0000
0010
0100
,
0000
0010
0000
0001
0010
0000
0100
0000
1000
0100
1000
0000
0100
0000
0010
0100
,
0000
0000
1000
0000
0001
0000
0010
0000
0001
0000
0000
1000
0000
0000
0100
0000
,
0000
0000
1000
0000
0000
0000
1010
0000
0110
0000
0000
0101
0000
0000
2002
0000
,
0000
0000
0000
0000
0000
0000
3003
0000
0001
0100
0001
0000
1000
0000
0010
1000
,
0000
0100
0000
1000
0100
0000
0010
0000
0100
0010
0100
0000
1000
0000
0001
0010
,
0000
0000
0001
0000
0100
0000
0010
0000
1000
0000
0000
0100
0000
0000
0010
0000
,
0000
0000
0001
0000
0000
0000
0101
0000
1010
0000
0000
1100
0000
0000
0220
0000
,
0000
0000
0000
0330
1000
0000
0000
0000
,
0000
0000
0100
0000
0010
0000
0001
0000
0100
0000
0010
0100
0000
0000
0000
0000
,
0000
0000
0000
0000
0000
0000
0010
0000
1000
0000
0000
0010
0000
0000
0100
0000
,
0001
0000
0000
0010
0000
0000
0100
0000
1000
0000
0000
0010
0000
0000
0100
0000
,
0001
0000
0000
1000
0000
0000
0100
0000
0220
0000
0000
0000
0000
0000
0000
0000
,
0330
0000
0100
0000
0010
0000
0001
0200
0000
0000
0000
0000
0000
0000
0300
0000
,
0000
0000
0010
0000
1000
0000
0100
0000
1000
0000
0010
0000
0100
0000
0001
0100
,
0000
0000
0010
0000
0000
0000
1000
0000
0100
0000
0010
0000
0001
0000
1000
0100
,
0000
0000
0000
0000
0000
0000
0000
0000
0000
0000
0010
0100
0020
0000
0000
0030
0100
0000
0000
0000
1000
0000
0000
0000
0100
0000
0000
0000
0000
0000
0000
0000
0010
0000
0000
0000
0000
0000
0000
0000
0001
0000
0000
0000
0010
0000
0000
0000
0000
0000
0000
0000
0001
0000
0000
0000
0000
0000
0000
0000
0100
0000
0000
0000
,
0010
0000
1000
0000
0010
1000
0010
0000
0100
0000
0001
0100
0000
0000
0001
0000
,
0010
0000
1000
0000
0010
0000
0000
0001
0000
0000
0100
0000
0000
0000
0010
0000
,
0000
0000
1010
0000
1100
0000
0000
0110
0000
0000
0022
0000
0000
0000
0000
0000
,
0000
0000
0033
0000
1000
0001
1000
0000
0010
0000
0100
0010
0000
1000
0000
0100
,
0010
0000
0100
0000
0010
0001
0010
0000
0100
0000
1000
0100
1000
0000
0100
0000
,
0010
0000
0001
0000
0100
0000
0000
0010
0000
0000
1000
0000
0000
0000
0100
0000
,
0000
0000
0011
0000
0101
0000
0000
0110
0000
0000
2020
0000
0000
0000
0000
0000
,
0000
3030
0220
0000
0000
0000
0330
0100
,
0000
0001
1000
0000
0100
0000
0010
0000
,
0100
0000
2000
0000
0000
0000
3000
0010
,
0000
0001
0010
0000
1000
0000
0010
0000
,
0100
0000
0000
0000
0001
0000
0000
0010
0000
0000
0000
0000
0000
0000
0000
0000
,
0000
0000
0100
0000
1000
0000
0000
0010
0000
0000
0000
0000
0000
0000
0000
0000
,
0000
0000
0220
0000
0000
0000
0330
0010
,
0000
0000
0100
0000
1000
0000
0000
0100
0000
0000
0001
0000
0010
0000
0000
0100
,
0000
1000
1010
0000
0000
0000
0000
0000
,
0100
0000
0000
0000
0001
0000
0000
0010
0000
0000
0100
0000
0010
0000
0000
0000
,
0000
0011
0000
0000
,
1000
0000
0000
0000
0010
0000
0000
0100
0000
0000
0001
0000
0100
0000
0000
0000
,
0010
0000
0000
0000
0001
0000
0000
0010
0000
0000
1000
0000
0000
0000
0000
0000
,
0000
0000
0100
0000
0001
0000
0000
0100
0000
0000
1000
0000
0000
0000
0000
0000
,
0010
0200
0000
0000
,
0000
0000
0000
0000
0300
0000
0000
0000
0000
0000
0000
0000
0101
0000
0000
0110
,
0000
1010
2002
0000
0000
0000
0000
0000
,
0000
0000
0000
0000
,
0000
0000
0000
0000
,
0000
3003
0220
0000
0000
0000
0000
0000
,
0000
0330
0000
0000
;

//---------------dance-single - Blank----------------
#NOTES:
     dance-single:
     Blank:
     Easy:
     5:
     0.340,0.402,0.192,0.192,0.218,187.000,18.000,18.000,4.000,0.000:

0000
0000
0000
0000
,
0000
0000
0000
0000
,
0000
0000
0000
0000
,
0000
0000
0000
0000
,
0000
0000
0000
0000
0000
0000
0000
0000
1001
0000
1000
0000
0001
0000
0000
0100
,
0000
0010
0000
0000
0100
0000
0000
0000
1001
0000
0001
0000
1000
0000
0000
0100
,
0000
0010
0000
0000
0100
0000
0000
0000
1001
0000
1000
0000
0001
0000
0000
0100
,
0000
0010
0000
0000
1000
0000
0100
0000
0001
0000
0000
0000
0100
0000
0000
1000
,
0000
0000
0010
0000
0100
0000
0001
0000
0010
0000
0000
0100
0000
0000
1000
0000
,
0000
0000
0001
0000
0000
0000
0010
0000
0001
0000
0000
0100
0000
0000
2020
0000
,
0000
0000
0000
0000
0000
0000
3030
0000
1010
0000
0010
0000
0100
0000
0000
0001
,
0000
0010
0000
0000
1000
0000
0010
0000
0100
0000
0000
0000
1000
0000
0000
0001
,
0000
0000
0010
0000
0100
0000
1000
0000
0010
0000
0000
0100
0000
0000
0001
0000
,
0000
0000
0010
0000
0000
0000
0100
0000
1000
0000
0000
0100
0000
0000
0022
0000
,
0000
0000
0000
0033
1001
0000
0000
0000
,
0000
0000
0100
0000
1000
0000
0100
0000
0001
0000
0000
0100
0000
0000
0000
0000
,
0000
0000
0000
0000
0000
0000
0010
0000
1001
0000
0000
1000
0000
0000
0100
0000
,
1100
0000
0000
0010
0000
0000
0001
0000
0011
0000
0000
1000
0000
0000
0010
0000
,
1010
0000
0000
0100
0000
0000
0001
0000
2002
0000
0000
0000
0000
0000
0000
0000
,
3003
0000
0100
0000
0010
0000
0000
0020
0000
0000
0000
0000
0000
0000
0030
0000
,
0000
0000
1000
0000
0001
0000
0100
0000
1000
0000
0100
0000
0001
0000
0000
0010
,
0000
0000
0100
0000
0000
0000
0001
0000
0100
0000
1000
0000
0010
0000
0100
0001
,
0000
0000
0000
0000
0100
0000
0010
0000
1000
0000
0000
0100
0000
0001
0000
0000
,
0100
0000
1000
0000
0001
0000
0000
0000
0010
0000
0000
0001
0000
0000
1000
0000
,
0100
0000
0010
0000
0001
0000
0000
0001
0000
0000
1000
0000
0000
0000
0100
0000
,
0000
0000
1000
0000
0010
0000
0000
1000
0000
0000
0202
0000
0000
0000
0000
0000
,
0000
0000
0303
0000
1000
0000
0010
0000
0100
0000
0000
1000
0000
0100
0000
0000
,
0001
0000
0010
0000
0100
0000
0000
0000
1000
0000
0000
0001
0000
0000
0100
0000
,
0001
0000
1000
0000
0010
0000
0000
0010
0000
0000
0100
0000
0000
0000
0001
0000
,
0000
0000
1000
0000
0001
0000
0000
0010
0000
0000
2200
0000
0000
0000
0000
0000
,
0000
3300
2002
0000
0000
0000
3003
0001
,
0000
0010
0100
0000
1000
0000
0001
0000
,
0010
0000
0200
0000
0000
0000
0300
0100
,
0000
0010
0001
0000
1000
0000
0100
0000
,
1000
0000
0000
0000
0010
0000
0000
0010
0000
0000
0000
0000
0000
0000
0000
0000
,
0000
0000
1000
0000
0100
0000
0000
0100
0000
0000
0000
0000
0000
0000
0000
0000
,
0000
0000
0220
0000
0000
0000
0330
1000
,
0000
0000
0001
0000
0010
0000
0000
0100
0000
0000
1000
0000
0010
0000
0000
0100
,
0000
0001
1010
0000
0000
0000
0000
0000
,
0100
0000
0000
0000
0001
0000
0000
1000
0000
0000
0100
0000
1000
0000
0000
0000
,
0000
0011
0000
0000
,
0001
0000
0000
0000
1000
0000
0000
0001
0000
0000
0100
0000
0010
0000
0000
0000
,
1000
0000
0000
0000
0001
0000
0000
0100
0000
0000
0010
0000
0000
0000
0000
0000
,
0000
0000
1000
0000
0100
0000
0000
0010
0000
0000
0001
0000
0000
0000
0000
0000
,
0001
0200
0000
0000
,
0000
0000
0000
0000
0300
0000
0000
0000
0000
0000
0000
0000
1000
0000
0000
0100
,
0000
0001
0020
0000
0000
0000
0000
0000
,
0000
0000
0000
0000
,
0000
0000
0000
0000
,
0000
0030
00M0
0000
0000
0000
0M00
0000
,
000M
M000
0000
0000
;

//---------------dance-single - Blank----------------
#NOTES:
     dance-single:
     Blank:
     Beginner:
     3:
     0.184,0.241,0.043,0.171,0.000,101.000,4.000,16.000,0.000,0.000:

0000
0000
0000
0000
,
0000
0000
0000
0000
,
0000
0000
0000
0000
,
0000
0000
0000
0000
,
0000
0000
0000
0000
0010
0000
0000
1000
,
0000
0000
0000
0000
0001
0000
0000
0100
,
0000
0000
0001
0001
,
0001
0001
0100
0100
,
0100
0000
0100
0000
1000
0000
0000
0100
,
0000
0000
0000
0000
0100
0000
0000
0002
,
0000
0000
0000
0003
1000
0000
1000
0000
,
1000
1000
0100
0100
,
0100
0000
0100
0000
0001
0000
0000
0100
,
0000
0000
0000
0000
0100
0000
0000
0020
,
0000
0000
0000
0030
1000
0000
0000
0000
,
0000
0100
0100
0100
,
0000
0000
0010
0000
,
0001
0000
1000
0000
,
0100
0100
0200
0000
,
0300
0010
0002
0000
,
0003
0000
0100
0000
,
1000
0000
0100
0001
,
0100
0010
0010
0010
,
0010
0100
0100
0100
,
0100
0000
0001
0000
0000
0010
0000
0000
,
0000
0000
0100
0000
0000
2000
0000
0000
,
0000
3000
0001
0000
0001
0000
0001
0000
,
0001
0010
0010
0010
,
0010
0000
1000
0000
0000
0010
0000
0000
,
0000
0000
0001
0000
0000
0200
0000
0000
,
0000
0300
2020
0000
0000
0000
3030
1000
,
0000
0010
0100
0001
,
1000
0000
0020
0000
0000
0000
0030
0100
,
0000
1000
0100
0001
,
1000
0200
0000
0300
,
0000
2000
0000
0000
,
3000
2002
0000
3003
,
0000
0100
0000
0010
,
0000
0011
0000
0000
,
0000
0100
0000
0010
,
0000
1010
0000
0000
,
0000
0100
0000
0001
,
0000
1000
0000
0100
,
0000
0010
0000
0001
,
0000
2000
0000
0000
,
0000
0000
0000
3000
0000
0000
0010
0000
,
0010
0200
0000
0000
,
0000
0000
0000
0000
,
0000
0000
0000
0000
,
0000
0300
0020
0000
0000
0000
0000
0000
,
0000
0030
0000
0000
;
